13 грехов / 13 Sins (2014) BDRip 720p | KinoGadget and KinoXa | iPad

opisanie-2567111

Год выпуска: 2014

Страна: США
Жанр: триллер, ужасы
Продолжительность: 01:32:21
Перевод: Дублированный

Режиссер: Даниэль Штамм

В ролях: Марк Веббер, Рутина Уэсли, Девон Грайе, Прюитт Тейлор Винс, Том Бауэр, Рон Перлман, Клайд Джонс, Денин Тайлер, Грег Пирсон, Ричи Монтгомери

Описание: Эллиот Бриндл — умный кроткий сотрудник службы социального обеспечения, тонущий в долгах. Всё меняется, когда раздаётся телефонный звонок. Парню сообщают, что он становится участником ТВ-шоу, условия простые — выполнить 13 заданий, какими бы странными они ни были; на кону — денежный приз, сумма которого увеличивается с каждым выполненным заданием. Эллиот следует первым инструкциям и с лёгкостью съедает пойманную муху. Вскоре Эллиот хочет, но не может прекратить игру, хотя задачи становятся более опасными, а точка невозврата скоро будет пройдена.

624156-6702196

Качество видео: BDRip 720p Исходник: Blu-ray Формат: mp4

Видео кодек: MPEG-4 AVC Аудио кодек: AAC
Видео: 1280×536 at 23.976 fps, AVC at 1 974 kbps avg, 0.120 bit/pixel
Аудио №1 Rus: 48.0 KHz, AAC, 2 ch, ABR, 144.0 Kbps

Автор рипа: cooltext115858163801327-5493450

Релиз-группа: button-5342066

[spoiler=»Meta Tags»]

[/spoiler] [spoiler=»MI»]General Complete name : E:13_grexov.2014_KinoGadget.and.KinoXa.mp4 Format : MPEG-4 Format profile : Base Media Codec ID : isom File size : 1.37 GiB Duration : 1h 32mn Overall bit rate mode : Variable Overall bit rate : 2 123 Kbps Movie name : 13 грехов Performer : Даниэль Штамм Genre : Horror, Thriller ContentType : Short Film Recorded date : 2014 Encoded date : UTC 2015-09-07 06:42:24 Tagged date : UTC 2015-09-07 15:50:31 Cover : Yes ContentRating : mpaa|R|400| LongDescription : Эллиот Бриндл — умный кроткий сотрудник службы социального обеспечения, тонущий в долгах. Всё меняется, когда раздаётся телефонный звонок. Парню сообщают, что он становится участником ТВ-шоу, условия простые — выполнить 13 заданий, какими бы странными они ни были; на кону — денежный приз, сумма которого увеличивается с каждым выполненным заданием. Эллиот следует первым инструкциям и с лёгкостью съедает пойманную муху. Вскоре Эллиот хочет, но не может прекратить игру, хотя задачи становятся более опасными, а точка невозврата скоро будет пройдена. HDVideo : Yes Video ID : 1 Format : AVC Format/Info : Advanced Video Codec Format profile : High@L4.1 Format settings, CABAC : Yes Format settings, ReFrames : 11 frames Codec ID : avc1 Codec ID/Info : Advanced Video Coding Duration : 1h 32mn Bit rate : 1 974 Kbps Maximum bit rate : 10.7 Mbps Width : 1 280 pixels Height : 536 pixels Display aspect ratio : 2.40:1 Frame rate mode : Constant Frame rate : 23.976 fps Color space : YUV Chroma subsampling : 4:2:0 Bit depth : 8 bits Scan type : Progressive Bits/(Pixel*Frame) : 0.120 Stream size : 1.27 GiB (93%) Writing library : x264 core 146 r2538 121396c Encoding settings : cabac=1 / ref=11 / deblock=1:-1:-1 / analyse=0x3:0x133 / me=umh / subme=7 / psy=1 / psy_rd=1.00:0.15 / mixed_ref=1 / me_range=24 / chroma_me=1 / trellis=2 / 8x8dct=1 / cqm=0 / deadzone=21,11 / fast_pskip=1 / chroma_qp_offset=-3 / threads=3 / lookahead_threads=1 / sliced_threads=0 / nr=0 / decimate=1 / interlaced=0 / bluray_compat=0 / constrained_intra=0 / bframes=6 / b_pyramid=2 / b_adapt=2 / b_bias=0 / direct=3 / weightb=1 / open_gop=0 / weightp=2 / keyint=240 / keyint_min=23 / scenecut=40 / intra_refresh=0 / rc_lookahead=60 / rc=crf / mbtree=1 / crf=21.0 / qcomp=0.60 / qpmin=0 / qpmax=69 / qpstep=4 / ip_ratio=1.40 / aq=1:1.50 Encoded date : UTC 2015-09-07 06:42:24 Tagged date : UTC 2015-09-07 06:43:45 Audio ID : 2 Format : AAC Format/Info : Advanced Audio Codec Format profile : LC Codec ID : 40 Duration : 1h 32mn Bit rate mode : Variable Bit rate : 144 Kbps Maximum bit rate : 271 Kbps Channel count : 2 channels Channel positions : Front: L R Sampling rate : 48.0 KHz Compression mode : Lossy Stream size : 93.3 MiB (7%) Language : Russian Encoded date : UTC 2015-09-06 16:46:43 Tagged date : UTC 2015-09-07 06:43:45 [/spoiler] [spoiler=»Скриншоты»]ddd10791cd7559afcba8e5a5b14f37a7-3918585 7829bfbf22bf0881e9b32d8fd8c65330-3928674 05f5e144c60e05ca44e1acff448a4309-6035397 [/spoiler]